Скачать виндовс 7 / 64бит ico

UltraISO использует двойной унифицированный пользовательский интерфейс. На выбор вам предоставляется возможность пользоваться исключительно быстрыми клавишами и/или мышкой Drag & Drops, вы легко можете работать с любым файлом изображений на CD/DVD. Home Download Buy Now Tutorials Contact US Download PowerISO Click the following link to download a free copy of PowerISO and try it before you purchase. Can config shell context menu. Can config toolbar buttons. Improve dmg and wim file support. Some minor bug fixes and enhancements. Click here to view the whole revision history… Other downloads: PowerISO for Linux — This is a free utility for linux which can extract, list, and convert image files (including ISO, BIN, DAA, and other formats).  Type » poweriso -?

Пес д артаньян и три мушкетера скачать

Д’Артаньян И Три Мушкетера [серия 1]
Трудно было решить, к какому жанру отнести этот трехсерийный телефильм: к мюзиклу, комедии, историческому,…

Скачать симулятор российского бездорожья

Взломаные игры про бездорожье Пониженная Передача бездорожье — единственная игра разработчика Tech mashine, как только появятся новые, они обязательно появятся в нашем каталоге. Castle Ideas — Minecraft PokerStars Poker: Texas Holdem Forge of Empires На протяжении всей истории компьютерных игр, гоночные симуляторы всегда занимали самые высокие позиции, причем это касается как аркадных гонок (в таких играх управление автомобилей сильно упрощено), так и реалистичных симуляторов (такие игры убедительно имитируют управление автомобиля). Впрочем, в далеком 1974 году (когда началась история автосимуляторов) ни о какой убедительности и реалистичности речи не шло. Свое начало игры гонки ведут от игры Gran Tank 10, которая была выпущена на платформе Atari. Эта игра представляла собой псевдотрехмерную проекцию дороги по которой ехал один автомобиль, без соперников. Первой же игрой, в которой появились противники, считается игра Pole Position, вышедшая в 1982 году. Вплоть до 90-х годов, практически все гонки выходили на игровых автоматах, однако вскоре появились такие продукты, как IndyCar и F1GP, которые вполне удобно себя чувствовали и на домашних приставках. В 1996 году, когда трехмерная графика завоевала персональные компьютеры, игры гонки стали выходить волна за волной.

О боже какой мужчина натали видео скачать

О Боже, какой мужчина, я хочу от тебя сына. И я хочу от тебя дочку, и точка, и точка! Не хватит всех на свете нежных слов, Чтобы описать мою любовь. И по ночам не плакать по мелочам. Ты, как время — лечишь мою печаль. Знаю я, любовь моя взаимна. Женщина прекрасна, когда любима. Ты волшебный, ты с другой планеты, Ты из моей мечты. Ты Джонни Депп и Брэд Питт в одном флаконе. Как самый лучший, ты записан в телефоне. И ты волшебный, ты с другой планеты. Я на все вопросы к тебе нашла ответы. О Боже, какой мужчина! Распечатать Поделиться Просмотров: 845738 Натали Застольные песни Песни к 8 марта Русский Поп ЕЩЕ ПЕСЕН

Хб скачать 1 серия 1 сезон

А как хочется отдохнуть после тяжелого трудового дня и посмотреть свой любимый сериал, особенно, если не успеваешь на очередную серию на ТВ. На нашем ресурсе Вы найдете все, что необходимо. В нынешний век для онлайн просмотра любимой серии достаточно иметь телефон, планшет или компьютер подключенный к сети интернет. Мы предлагаем Вам воспользоваться нашим предложением и скачать сериалы в формате mp4 или 3gp или посмотреть онлайн совершенно бесплатно! Стоить заметить что в сериалах и фильмах можно вырезать понравившийся отрезок или скачать серию по частям.

Скачать через торрент город 312

Кирилл Пирогов — Медленная музыка.wav Peak level 98.8 % Extraction speed 3.3 X Track quality 99.9 % Test CRC 732CD06E Copy CRC 732CD06E Track not present in AccurateRip database Copy OK Track 11 Filename F:\New York for RuTracker.org (03.05.2013)\11. Асман и пицца — По волнам….wav Peak level 98.9 % Extraction speed 4.1 X Track quality 100.0 % Test CRC EED25209 Copy CRC EED25209 Track not present in AccurateRip database Copy OK Track 12 Filename F:\New York for RuTracker.org (03.05.2013)\12. Кирилл Пирогов — Фортепиано.wav Peak level 98.9 % Extraction speed 2.6 X Track quality 99.8 % Test CRC 5DA2E315 Copy CRC 5DA2E315 Track not present in AccurateRip database Copy OK Track 13 Filename F:\New York for RuTracker.org (03.05.2013)\13. DJ Кефир — Возьми меня.wav Peak level 98.9 % Extraction speed 4.6 X Track quality 100.0 % Test CRC 1C238450 Copy CRC 1C238450 Track not present in AccurateRip database Copy OK Track 14 Filename F:\New York for RuTracker.org (03.05.2013)\14. Krec — Нежность.wav Peak level 98.9 % Extraction speed 4.6 X Track quality 100.0 % Test CRC FCBDDD67 Copy CRC FCBDDD67 Track not present in AccurateRip database Copy OK Track 15 Filename F:\New York for RuTracker.org (03.05.2013)\15. Кирилл Пирогов — Гитара.wav Peak level 98.9 % Extraction speed 3.3 X Track quality 100.0 % Test CRC 7709B726 Copy CRC 7709B726 Track not present in AccurateRip database Copy OK Track 16 Filename F:\New York for RuTracker.org (03.05.2013)\16. Мумий Тролль — Такие девчонки.wav Peak level 98.9 % Extraction speed 4.9 X Track quality 100.0 % Test CRC 3C012711 Copy CRC 3C012711 Track not present in AccurateRip database Copy OK Track 17 Filename F:\New York for RuTracker.org (03.05.2013)\17.

Скачать через торрент волк тайна оборотня

Тайны чернобыля. Мутанты, аномалии, секреты зоны отчуждения.
Документальный фильм «Тайны Чернобыля» — это передача, из которой вы узнаете о событиях, которые происходят…

Скачать торрент windows 7 32 bit 2009

Spore — это новое амбициозное творение легендарного Уилла Райта, создателя гениальных SimCity и The Sims. Впервые в истории электронных развлечений вы и только вы определяете, каким будет окружающий мир в следующую секунду. Облик расы и вся ее культура в самом широком понимании этого слова определяется исключительно вашим воображением! Только от создателя зависит, получатся его чада добрыми философами или кровожадными чудовищами, понесут они знания низшим народам или жестоко поработят соседей по галактике. В Spore никто не указывает, что делать и как поступить. Это ваш мир, и вы — его хозяин! Информация: Миллионы лет эволюции. Многотрудный путь начинается с самых примитивных форм жизни, для которых наивысший успех — не быть съеденными старшими собратьями. Но впереди — целых шесть этапов развития, каждый из которых кардинально отличается от других и является маленьким шагом на пути к заветной цели — вселенскому господству!

Скачать программу трафик инспектор репак через торрент

UserGate 2.8.avi
Оганизация совместного доступа в Интернет в локальной сети.

Скачать программку манагер для удаления стрелок ярлыков

, Total Commander , , , , . — , , Shift. , mp3- WinAmp- . Internet Explorer, Opera ( ) html- . , html- (html-), . Drag’n Drop ! , , Drag’n Drop, F3, F4, F5, . , , , (Left Arrow Right Arrow). , , — Wincmd Directory Menu Customizer. , Downloads, &Downloads. , Ctrl+D, D.